что такое 448 kbps

 

 

 

 

Продолжительность : 1 ч. 35 м. Вид битрейта : Постоянный Битрейт : 448 Кбит/сек Каналы : 6 каналов Расположение каналов : Front: L C R, Side: L R, LFE Частота : 48,0 КГц Битовая глубина : 16 бит Метод сжатия : С потерями Размер потока : 307 Мбайт (3) Заголовок : DVO Как закачать отдельный файл из релиза? Помощь в оформлении релизов. Что такое безлимитный трекер. О фильме: В центре фильма — два «охотника за головами» ищущие на Диком Западе бандитов, отставной полковник армии конфедератов, Дуглас Мортимер (его играет Ли Ван Клиф), и мастерски орудующий пистолетом одной рукой блондин по прозвищу Однорукий (Mancо 3/2 (L,C,R,l,r) LFE ch, 448.00 kbps - Russian Перевод: Доп. информация: Перевод: Профессиональный (дублированный) (со вставками многоголосого "Позитив") Субтитры: Русские, английские. Джон упрашивает своего начальника дать ему еще несколько дней за свой счет чтобы закончить последнее дело. , КиноПоиск Качество видео: DVDRip-AVC Контейнер: MKV Видео кодек: AVC Аудио кодек: AC3 Видео: 720х552, 25.000 fps, 1879 kbps Аудио 1: DD 5.1 448 kbps Английский Фирменный диск был куплен на озоне и любезно предоставлен одним слушателем, за что ему огромное спасибо. Сделал ремастеринг видео. Год выхода: 2018 Формат: Mkv Mpeg4 (H264) Видео: 1280x896(4x3) 1280x912(4x3) Аудио 1: PCM 1536 kbps 48000Hz Аудио 2: Ac3 448kbps Верхний срез спектра в районе 15000 Hz 128 kbps: Cрез на 20000 Hz 320 kbps: Таким образом можно определить реальный битрейт файла и тот из которого он был переконвертирован. Если вы очень торопитесь, то посчитайте все нужные вам цифры с помощью онлайн конвертера величин, измеряющих объем информации. Но я рекомендую прочесть статью полностью и поделиться ссылкой в соц. сетях. Online конвертер единиц информации. Термин битрейт означает, сколько информации было передано за единицу времени. Кодирование в файлы МРЗ может осуществляться с постоянным и переменным битрейтом. Он обычно определяет качество звучания и соответственно размер файла. В обычной практике Что такое битрейт?Например, битрейт 128 kbps расшифровывается как 128 килобит в секунду и означает, что для кодирования одной секунды звука используется 128 тысяч бит (1 байт 8 бит). Качество: BDRip 1080p (Что такое BDRip или DVDRip?) Что такое kbps? тэги: kbps, что это. категория: компьютеры и интернет. А ты на слух заметишь разницу. Не верю! 320 kbps - максимальное качество звучания для mp3.

AC-3 - лучший кодек, с ним даже 48 kbps звучит качественно. Последнее если так важно. The Prodigy - Babys Got A Temper HD AC3 448Kbps. Что такое формат MP3? 17 комментариев Гость, выскажи мнение.Файлы MP3 обычно закодированы с битрейтом от 64 до 320 килобит в секунду ( kbps или kb/s), а также с переменным битрейтом (VBR) — когда для каждого фрейма используется свой, оптимальный для данногоfps Аудио 01: TrueHD, 8 ch, 3783 kbps (Английский) Аудио 02: DTS-HD MA, 6 ch, 2274 kbps (Английский) Аудио 03: AC3, 6 ch, 448 kbps (Французский) Аудио 04Скачать бесплатно и на максимальной скорости! Как скачивать? Что такое торрент? Рейтинг и ограничения. Что такое DTS? DTS - формат хранения цифрового звука.Исполнитель: Jean Michel Jarre Альбом: Oxygene Moscow Стиль: Electronic Год: 1997 Качество: DVD-Video 4:3 (Dolby AC3 5.1, Dolby AC3 2.0) Битрэйт: 448 kbps Количество треков: 14 Размер: 6.07 Gb Процент Битрейты имеют единицы измерения — килобиты в секунду (Kbps) и мегабиты в секунду (Mbps).

Алгоритм сжатия аудио MP3 часто применяется с сжатитем 128 kbps. Они бывают двух типов: постоянные и переменные. Кбит/с), английский (AC3, 6 ch, 640 Кбит/с), португальский, английский (AC3, 6 ch, 448 Кбит/с) Профиль формата: MainL5.1 Основные цвета: BT.709 Характеристики трансфера: BT.709Скачать бесплатно и на максимальной скорости! Как скачивать? Что такое торрент?например, если в исходной AC3 дорожке было 20 КГц (640кб/с), то здесь мы получим дорожку с 16-17 КГц ( 448 кб/с).Cписок самых необходимых команд eac3to. -448. необходимый битрейт "192" " 448" или "640" kbps (для кодирования AC3 значение должно быть кратным 64) -768 Нынче при всеохватывающем ВКонтакте имеет смысл создать mp3 Безпотерикачества (!!!) пусть это будет , например , вернее , примерно , 600 kbps или даже 900 kbps — ВКонтакт всё вместит. Битрейт измеряется, как правило, в килобитах в секунду (kbps).Вы узнали, откуда произошло слово Битрейт простыми словами, его перевод и смысл. Пожалуйста, поделитесь ссылкой « Что такое Битрейт?» с друзьями Измеряются они в килобитах в секунду (Kbps), а для кодирования звука в фильмах чаще используют мегабиты в секунду (Mbps). Если говорить о классическом МР3, то наиболее популярным можно считать 128 kbps битрейт. Что это значит? Примечание: Допускаются отклонения от рекомендованных битрейтов в пределах до 448 kbps включительно для звуковых дорожек Dolby АС3, скопированных с исходного материала (DVD-Video, Blu-Ray Disс и т.п.) без перекодирования. Русский AC3, 448 Kbps, 6 ch, 48.0 KHz. Теги: Звуковые дорожки, переводы.Новолуние / The Twilight Saga: New Moon (2009) [RUS] [DUB]. Русский, DTS 756 kbps avg, 48000 Hz, 6ch. Теги: Звуковые дорожки, переводы. Кроме этого, DTS предусматривает гораздо более высокий поток данных, до 1536 kbps, против 448 kbps (хотя многие декодеры поддерживают до 640 kbps) у Dolby Digital. Радует, что такую подготовку программы нужно сделать лишь один раз.В открывшемся окне программы выбираете битрейт 448 kbps (он точно поддерживается телевизорами) и нажимаете на MUX Wizard. 448 Kbps, (Это что, ОПЕРА?Выбираем нужный кодек Lame MP3 дающий наиболее качественный звук. Но что такое, в полях со списком вариантов битрейтов мы видим пустое место!!! Иногда величину потока данных называют шириной потока. Существует специальный термин bitrate. Скорость потока данных определяется в килобитах в секунду и обозначается kbs, kbps, kb/s. Что такое MP3? MP3 - сокращение от MPEG Layer3.И даже не одобряю кодирование в 256 kbps. IMHO лучше всего 160 kbps для музыки, которая просто нравится и 192 kbps для той, которая очень нравится. 0.229 kbps Presentation Graphics Polish 0.172 kbps Presentation Graphics Russian 0.990 kbps Presentation Graphics Thai 0.511 kbps.Как скачивать Что такое torrent (торрент). Сайт не распространяет и не хранит электронные версии произведений, а лишь предоставляет доступ к В принципе стандарт DVD предпологает максимальный звуковой поток для DD 448 kbps. И DVD плееры играть более высокие потоки не обязаны. Пионер соответствует стандарту DVD и начисто отвергает звук в DD с потоком выше 448 kbps. Если на трекере есть еще переводы, которых нет в этом сборнике, убедительная просьба указать ссылку на релиз -Робот-полицейский Театральная версия - Directors Cut NTSC Продолжительность: 01:43:14 NTSC Audio 1: AC3 , 2.0, 48KHz , 192 kbps |Многоголосый Битрейт выражается битами в секунду (бит/c, bps), а также производными величинами с приставками кило- (кбит/с, kbps), мега- (Мбит/с, Mbps) и т. д. Скорость передачи данных с использованием битов в секунду блока (символ: «бит/с» Для AC3 максимально возможный для DVD - 448kbps (кодер, вроде, позволяет сделать более высокий битрейт, только плееры читать его не будут: спецификацией не определено), а для DTS - минимальный - 768 kbps. Dolby Digital Audio Kazakh 448 kbps 5.1 / 48kbps Presentation Graphics Estonian 32,218 kbps Presentation Graphics Finnish 31,767Lithuanian 34,252 kbps Presentation Graphics Norwegian 33,581 kbps Presentation Graphics Russian 37,848 kbps Presentation Graphics Swedish 31,706 Scan type : Progressive Bits/(PixelFrame) : 0.405 Stream size : 842 MiB (82). Audio 1 ID : 128 (0x80) Format : AC-3 Format/Info : Audio Coding 3 Duration : 28mn 4s Bit rate mode : Constant Bit rate : 448 Kbps Channel(s) : 6 channels Channel positions : Front: L C R, Surround: L R, LFE Sampling Что такое МР3.Понятно, что 128 kbps лучше, чем 256 kbps, а 320 kbps - это почти CD-качество. Kbps, говоря по-русски, это количество килобит (не килобайт!), из которых состоит одна секунда звука. Что такое поля, зачем они и почему так важен их порядок - эти вопросы мы опустим, а собственно процедура определения порядка полейТакая программа может пережать поток с битрейтом 448 Kbps в поток, скажем, 320 Kbps без существенной потери качества. Тест на качество различных битрейтов.

1. 128 kb/s Помните такие слова: "mp3 с битрейтом в 128 kb/s теоретически соответствует CD качеству"? Взято из этой раздачи ShakalAC3Gavrilov T01 32ch 448Kbps 398,938 Mb (418 317 312 bytes) 2 ч 4 мин 29 сек (2:04:29.952) 0x2000 (FASTКак скачивать Что такое torrent (торрент). Сайт не распространяет и не хранит электронные версии произведений, а лишь предоставляет доступ к Что такое бит, что такое байт. Чему равны эти величины. В чем измеряется скорость интернет соединения.Таким образом, если ваша скорость 128 Kbps это означает, что ваше соединение имеет пропускную способность 128 килобит в секунду или же 16 килобайт в секунду. Примечание: для лучшего понимания нижеизложенного текста очень рекомендую ознакомиться с основами цифрового звука. Также многие затронутые ниже моменты освещены в моей публикации «Ещё раз о печальной правде: откуда на самом деле берётся хорошее звучание?». Килобиты в секунду — кбит/c (kbps)Мегабиты в секунду — Мбит/c (Mbps)Смотреть что такое "Килобит в секунду" в других словарях 0.229 kbps Presentation Graphics Polish 0.172 kbps Presentation Graphics Russian 0.990 kbps Presentation Graphics Thai 0.511 kbps.Скачать бесплатно и на максимальной скорости! Как скачивать? Что такое торрент? Рейтинг и ограничения. Для рипа пошикарнее возьмем 1400 мб (2CD), 544x400, 1450 Kbps, AC3 6 ch, 448.00 kbps. Запомните: для лучшего качества, необходим повышенный битрейд и пропорциональная ему картинка. Поверьте, уважаемые, если вы постоянно слушаете музыку в 192kbps и вдруг решите прослушать 4-х минутную песню в 320 kbps, то разницу вы не ощутите, если конечно не обладаете исключительным слухом. 3D2D Видеокодек: MPEG-4 AVC Размер кадра: 1920x1080 Контейнер: ISO Формат 3D: Blu-ray 3D Аудиокодек: DTS-HD MA, DTS, AC3 Видео : MPEG-4 AVC, 23.95 Мбит/с, 1920x1080 Аудио : Русский (DTS Audio 448 kbps 2.0Как скачивать? Что такое торрент? Рейтинг и ограничения. Известно, что такого типа искажения при кодировании в низкие потоки часто появляются и непосредственно, без всяких дополнительных обработок.[ Читайте также: Плюсы и минусы MP3 256 kbps ]. А также: Если есть возможность скачать диск в DTS 5.1 и Audio-DVD какой формат выбрать? Audio-DVD (Dolby AC3 5.1, Dolby AC3 4.0 ( 448 kbps, 640 kbps), LPCM 2.0 1536 kbps) | Bitrate: lossless.

Новое на сайте: